Запретный плод / Yasak Elma / Серии: 1-12 (12) (Неслихан Йешильюрт / Neslihan Yeşilyurt) [2018, Турция, Драма, WEBRip] (DVO Студия переводов ★ TURK STAR)

Статистика раздачи
Размер:  20.22 GB   |   Зарегистрирован:  4 месяца 6 дней   |   .torrent скачан:  602 раза
Сиды:  2   Личи:  1
Автор
Сообщение

aleves58

Стаж: 8 лет 11 месяцев

Сообщений: 355

flag

aleves58 · 24-Мар-18 18:22 (6 месяцев назад, ред. 10-Июн-18 19:40)

 

Запретный плод / Yasak Elma
Год выпуска: 2018
Страна: Турция
Производство: MedyaYapım
Жанр: Драма
Серии (количество): 1-12 (12)
Продолжительность:12 х ~ 01:50:00
Перевод: любительский двухголосый закадровый (Студия переводов ★ TURK STAR)
Субтитры: Отсутствуют

Режиссёр: Неслихан Йешильюрт / Neslihan Yeşilyurt

В ролях: Онур Туна / Onur Tuna - Алихан Ташдемир
Севда Эргинджи / Sevda Erginci - Зейнеп Йылмаз
Эда Эдже / Eda Ece - Йылдыз Йылмаз
Шевваль Шам / Şevval Sam - Эндер Аргун
Талат Булут / Talat Bulut - Халит Аргун
Шафак Пекдемир / Şafak Pekdemir - Зехра Аргун
Барыш Айтач / Barış Aytaç - Джанер Челеби
Ирем Кахьяоглу / İrem Kahyaoğlu - Шенгюль Доган
Кыванч Касабалы / Kıvanç Kasabalı - Синан
Нильгюн Тюрксевер / Nilgün Türksever - Зеррин Ташдемир
Синан Эроглу Sinan Eroğlu - Хакан Куртулуш
Илькер Кабаоглу / İlker Kaboğlu - Эрим Аргун
Айшегюль Чынар / Ayşegül Çınar - Лила Аргун
Туче Кочак / Tuğçe Koçak - Лаль Узун

Описание: Зейнеп и Йылдыз две сестры во всем заботящиеся друг о друге, однако они совсем непохожи друг на друга, у них совершенно разные цели и мечты. Жизнь Йылдыз меняется, когда она знакомится с Эндер Аргун, светской львицей. Эндер решила с помощью Йылдыз избавиться от своего мужа Халита, она делает ей удивительное предложение.
В то время как в жизни Йылдыз происходят эти события, фирму в которой работает Зейнеп, покупает Алихан Ташдемир. Алихан очень высокомерный, заносчивый богатый бизнесмен. Стычки Зейнеп и Алихана в короткое время превращаются в притяжение. Но Зейнеп не знает, что Алихан компаньон Халита и брат его жены Эндер. А решение принятое Йылдыз затронет не только ее саму, но и Зейнеп…

Сэмпл:http://multi-up.com/1192685
Качество: WEB-DLRip
Формат: AVI
Видео кодек: XviD
Аудио кодек: MP3
Видео: 720x400 (1.80:1), 25 fps, XviD build 67 ~1715 kbps avg
Аудио: 44.100 kHz, MPEG Layer 3, 2 ch, ~192.00 kbps avg
Реклама: Отсутствует
MI
Формат : AVI
Формат/Информация : Audio Video Interleave
Размер файла : 1,36 Гбайт
Продолжительность : 1 ч. 41 м.
Общий поток : 1916 Кбит/сек
Библиотека кодирования : VirtualDub build 35491/release
Видео
Идентификатор : 0
Формат : MPEG-4 Visual
Профиль формата : Simple@L5
Параметр BVOP формата : Нет
Параметр QPel формата : Нет
Параметр GMC формата : Без точки перехода
Параметр матрицы формата : Default (H.263)
Идентификатор кодека : XVID
Идентификатор кодека/Подсказка : XviD
Продолжительность : 1 ч. 41 м.
Битрейт : 1715 Кбит/сек
Ширина : 720 пикселей
Высота : 400 пикселей
Соотношение сторон : 16:9
Частота кадров : 25,000 кадров/сек
Цветовое пространство : YUV
Субдискретизация насыщенности : 4:2:0
Битовая глубина : 8 бит
Тип развёртки : Прогрессивная
Метод сжатия : С потерями
Бит/(Пиксели*Кадры) : 0.238
Размер потока : 1,21 Гбайт (89%)
Библиотека кодирования : XviD 67
Аудио
Идентификатор : 1
Формат : MPEG Audio
Версия формата : Version 1
Профиль формата : Layer 3
Режим : Joint stereo
Идентификатор кодека : 55
Идентификатор кодека/Подсказка : MP3
Продолжительность : 1 ч. 41 м.
Вид битрейта : Постоянный
Битрейт : 192 Кбит/сек
Каналы : 2 канала
Частота : 44,1 КГц
Метод сжатия : С потерями
Размер потока : 139 Мбайт (10%)
Выравнивание : Разделение по промежуткам
Продолжительность промежутка : 40 мс. (1,00 видеокадр)
Время предзагрузки промежутка : 500 мс.
Скриншоты
Предыдущие и альтернативные раздачи
Зарегистрирован:
  • 10-Июн-18 19:40
  • Скачан: 602 раза

Скачать .torrent

102 KB

Тип: обычная
Статус: проверено
Размер: 20.22 GB  ·  magnet03C7824A58442ADEA216A6AA7CE97674CD8E9BEE
  • Свернуть поддиректории
  • Развернуть
  • Переключить
  • Увел./умен. окно
загружается...

oasisoasis10

Стаж: 7 лет 1 месяц

Сообщений: 2645

flag

oasisoasis10 · 24-Мар-18 20:05 (спустя 1 час 43 мин.)

aleves58 зачем повторять мои раздачи?

aleves58

Стаж: 8 лет 11 месяцев

Сообщений: 355

flag

aleves58 · 25-Мар-18 08:11 (спустя 12 часов)

А разве у тебя есть раздача с озвучкой Ирины Котовой в ави?
oasisoasis10 писал(а):
75047963aleves58 зачем повторять мои раздачи?

Ukraine50

Помощник модератора

Стаж: 4 года 6 месяцев

Сообщений: 4483

flag

Ukraine50 · 27-Мар-18 13:25 (спустя 2 дня 5 часов)

aleves58
формат AVI обычно используют для разрешения 720х400.
Считаю, раз вы решили сделать в АВИ, то приведите раздачу в соответствующий стандарт.
1280х720 - разрешение высокого качества и использует контейнеры МР4 или МКВ.

aleves58

Стаж: 8 лет 11 месяцев

Сообщений: 355

flag

aleves58 · 28-Мар-18 19:21 (спустя 1 день 5 часов, ред. 28-Мар-18 19:21)

ок. при добавлении 2 серии разрешение поменяю на 720х400.
Ukraine50 писал(а):
75064597aleves58
формат AVI обычно используют для разрешения 720х400.
Считаю, раз вы решили сделать в АВИ, то приведите раздачу в соответствующий стандарт.
1280х720 - разрешение высокого качества и использует контейнеры МР4 или МКВ.
2 серия. Заменил релиз на двухголосую озвучку с разрешением 720х400

Adam Petrovsky

Стаж: 6 месяцев

Сообщений: 1

flag

Adam Petrovsky · 29-Мар-18 17:03 (спустя 21 час)

Цитата:
Перевод: любительский двухголосый закадровый (Светлана Суббот и Азат Кара)
Исправьте. Переводом занимается группа Favorite ♛ IndiTurk ♛ Serials, а озвучивает наша группа ★ TURK STAR.
Светлана Суббот и Азат Кара никакого отношения к этому сериалу не имеют.

oasisoasis10

Стаж: 7 лет 1 месяц

Сообщений: 2645

flag

oasisoasis10 · 03-Апр-18 22:23 (спустя 5 дней)

Как ты за....бал, сколько можно повторять мои раздачи?
Это уже похоже на зависимость!
Ты ни одну из своих раздач первый не выложил!

DLeonidSF

Стаж: 9 лет 6 месяцев

Сообщений: 1846

flag

DLeonidSF · 03-Апр-18 22:57 (спустя 33 мин.)

oasisoasis10 у Вас одноголосая озвучка (Гайдаржи) 720р, здесь же 2-х голосая 400р. Совершенно разные раздачи.

aleves58

Стаж: 8 лет 11 месяцев

Сообщений: 355

flag

aleves58 · 04-Апр-18 12:57 (спустя 14 часов)

Не люблю халтуру, тупо скачал с логотипами сторонних ресурсов и выкладываешь.
oasisoasis10 писал(а):
75111616Как ты за....бал, сколько можно повторять мои раздачи?
Это уже похоже на зависимость!
Ты ни одну из своих раздач первый не выложил!

irenerossi

Стаж: 7 лет 7 месяцев

Сообщений: 97

flag

irenerossi · 04-Апр-18 13:53 (спустя 56 мин.)

aleves58, что же вы людей обманываете? Скачав 3ю серию, я ожидала услышать 2х голосую озвучку, как заявлено в теме. А оказалась одноголосая. Почему нигде не написано?

aleves58

Стаж: 8 лет 11 месяцев

Сообщений: 355

flag

aleves58 · 04-Апр-18 14:34 (спустя 40 мин.)

Заменил 3 серию. Перехешируйте торрент

Лакки89

Стаж: 6 месяцев

Сообщений: 1

flag

Лакки89 · 11-Апр-18 14:05 (спустя 6 дней)

Спасибо) Эта озвучка больше всего нравится
Сериал классный, надеюсь сценаристы не намудрят

llvvoo14

Стаж: 4 года 8 месяцев

Сообщений: 43

flag

llvvoo14 · 19-Апр-18 12:10 (спустя 7 дней)

Спасибо, за новую серию в озвучке

Виталий.В.К

Стаж: 1 год 3 месяца

Сообщений: 1

flag

Виталий.В.К · 24-Апр-18 03:35 (спустя 4 дня)

А когда будут следующие серии 6 например?
 
All rights reserved © 2017-2018
Loading...
Error